萌喵动漫,各种东方资源下载,二次元音乐,MIKU演唱会,动漫合集下载,同人本子,游戏,新番,里番……欢迎有爱的朋友常来
萌喵动漫
您当前所在位置:萌喵首页 > V家专区 >

初音MIKU2012.3.9ミク日大感谢祭完整下载

来源:萌喵网         更新时间:2012-07-10 14:45          点击次数:



三个分卷都要下 然后放在同一目录即可解压 已加入rr3恢复记录

115下载地址:
c2xc6r4b 【水萌压制】卷毛字幕-2012.3.9-PC-PSP-内嵌.part1.rar
dp5ju7nd 【水萌压制】卷毛字幕-2012.3.9-PC-PSP-内嵌.part2.rar
e7l1xq19 【水萌压制】卷毛字幕-2012.3.9-PC-PSP-内嵌.part3.rar



视频参数:
General
Complete name : F:\【水萌压制】卷毛字幕 2012.3.9 PC PSP 内嵌.mp4
Format : MPEG-4
Format profile : Sony PSP
Codec ID : MSNV
File size : 1.86 GiB
Duration : 2h 13mn
Overall bit rate mode : Variable
Overall bit rate : 1 989 Kbps
Encoded date : UTC 2012-03-14 04:51:35
Tagged date : UTC 2012-03-14 04:51:35

Video
ID : 1
Format : AVC
Format/Info : Advanced Video Codec
Format profile : Main@L3.0
Format settings, CABAC : Yes
Format settings, ReFrames : 3 frames
Codec ID : avc1
Codec ID/Info : Advanced Video Coding
Duration : 2h 13mn
Bit rate : 1 800 Kbps
Maximum bit rate : 12.2 Mbps
Width : 720 pixels
Height : 480 pixels
Display aspect ratio : 16:9
Original display aspect ratio : 16:9
Frame rate mode : Constant
Frame rate : 29.970 fps
Standard : NTSC
Color space : YUV
Chroma subsampling : 4:2:0
Bit depth : 8 bits
Scan type : Progressive
Bits/(Pixel*Frame) : 0.174
Stream size : 1.68 GiB (90%)
Title : Imported with GPAC 0.4.6-DEV (internal rev. 5)
Writing library : x264 core 120 r2164 da19765
Encoding settings : cabac=1 / ref=3 / deblock=1:0:0 / analyse=0x1:0x111 / me=umh / subme=9 / psy=1 / psy_rd=0.40:0.00 / mixed_ref=1 / me_range=24 / chroma_me=1 / trellis=2 / 8x8dct=0 / cqm=0 / deadzone=21,11 / fast_pskip=0 / chroma_qp_offset=-2 / threads=6 / sliced_threads=0 / nr=0 / decimate=0 / interlaced=0 / bluray_compat=0 / constrained_intra=0 / bframes=3 / b_pyramid=0 / b_adapt=2 / b_bias=0 / direct=3 / weightb=1 / open_gop=0 / weightp=0 / keyint=300 / keyint_min=29 / scenecut=40 / intra_refresh=0 / rc_lookahead=40 / rc=2pass / mbtree=1 / bitrate=1800 / ratetol=1.0 / qcomp=0.60 / qpmin=10 / qpmax=51 / qpstep=4 / cplxblur=20.0 / qblur=0.5 / ip_ratio=1.40 / aq=1:1.00
Encoded date : UTC 2012-03-14 04:51:35
Tagged date : UTC 2012-03-14 04:51:53

Audio
ID : 2
Format : AAC
Format/Info : Advanced Audio Codec
Format profile : LC
Codec ID : 40
Duration : 2h 13mn
Bit rate mode : Variable
Bit rate : 185 Kbps
Maximum bit rate : 217 Kbps
Channel(s) : 2 channels
Channel positions : Front: L R
Sampling rate : 44.1 KHz
Compression mode : Lossy
Stream size : 177 MiB (9%)
Encoded date : UTC 2012-03-14 04:51:52
Tagged date : UTC 2012-03-14 04:51:53

顶一下
(0)
0%
踩一下
(0)
0%

相关喵~~~

Hatsune Miku EXPO 2014

跑了将近一周的蛋疼玩意……不过画质的确对得起这时间浪费。...[详细]

[演唱会]初音未来的激唱(MikuPa2012 Live)

初音miku的演唱会,不多说了,各位看官肯定都懂的,有爱的还没有的话就下了吧。...[详细]

初音未來Miku Magical Mirai 2013演唱会高清收藏版

横浜アリーナに集う15,000人が热狂! 初音ミク史上最大イベント「マジカルミライ2013」がパッケージで登场!!...[详细]

关键字:初音,MIKU,2012,3.9,ミク日,大感
关注萌喵

关注萌喵动漫微信公众号,2次元福利资源抢先下载

萌喵动漫,有爱的小站,欢迎您常来!
如果您想找什么二次元的资源却找不到,联系我们帮您找吧,联系方式:11111200@qq.com
本站资源来自互联网,仅供学习交流之用,如果侵犯您的权利,请通知我们,我们会尽快删除
版权信息:萌喵动漫--浙ICP备12019109号-1